Самые скачиваемые

5 C

5

 

Red_Bandit ®

Longevity:
10 years
Posts:
169

Paul van Dyk - In Between (Ltd. Edition)
Жанр: Trance
Издатель: Mute Rec.
Официальный сайт: PaulVanDyk.com
Год выпуска: 2007
Источник: FLAC image/track
Продолжительность: 02:09:52
Тексты: отсутствуют
-Треклисты:

In Between - CD1


01 - Haunted
02 - 2 PvD White Lies (featuring Jessica Sutta)
03 - Sabotage
04 - Complicated (featuring Ashley Tomberlin)
05 - Get Back (featuring Ashley Tomberlin)
06 - Far Away
07 - Another Sunday
08 - Talk in Grey
09 - In Circles
10 - In Between
11 - Stormy Skies (featuring Wayne Jackson)
12 - Detournament
13 - New York City (featuring Ashley Tomberlin)
14 - 14 PvD Castaway
15 - La Dolce Vita
16 - Let Go (featuring Rea)
17 - Fall With Me (featuring David Byrne)

In Between - CD2


01. White Lies (Berlin Vocal Mix)
02. Detournement (Original)
03. Big Bang
04. Torn
05. World In My Eyes
06. White Lies (Count Mix)
07. Taking The Long Way
08. Hours

Тех-данные:

CD1 - cонограмма на трек - Let Go

CD2 - cонограмма на трек - World In My Eyes

CD1 - EAC logfile

EAC extraction logfile from 19. August 2007, 3:58 for CD
Paul van Dyk / In Between (Ltd Edition)
Used drive : Memorex 16X-DDL-ILO Adapter: 0 ID: 0
Read mode : Secure with NO C2, accurate stream, disable cache
Read offset correction : 6
Overread into Lead-In and Lead-Out : No
Used output format : C:\Exact Audio Copy\flac-1.1.4-win\bin\flac.exe (User Defined Encoder)
192 kBit/s
Additional command line options : -8 -A tukey(0.25) -A gauss(0.1875) -b 4096 -V -T "artist=%a" -T "title=%t" -T "album=%g" -T "date=%y" -T "tracknumber=%n" -T "genre=%m" %s --sector-align
Use compression offset : 0
Other options :
Fill up missing offset samples with silence : Yes
Delete leading and trailing silent blocks : No
Native Win32 interface for Win NT & 2000
Range status and errors
Selected range
Filename C:\Exact Audio Copy\+Ripped+\Paul van Dyk - In Between (Ltd Edition).wav
Peak level 97.7 %
Range quality 99.9 %
CRC 344FBEE8
Copy OK
No errors occured
End of status report

CD2 - EAC Logfile

EAC extraction logfile from 19. August 2007, 5:13 for CD
Paul van Dyk / In Between (Ltd Edition)
Used drive : Memorex 16X-DDL-ILO Adapter: 0 ID: 0
Read mode : Secure with NO C2, accurate stream, disable cache
Read offset correction : 6
Overread into Lead-In and Lead-Out : No
Used output format : C:\Exact Audio Copy\flac-1.1.4-win\bin\flac.exe (User Defined Encoder)
192 kBit/s
Additional command line options : -8 -A tukey(0.25) -A gauss(0.1875) -b 4096 -V -T "artist=%a" -T "title=%t" -T "album=%g" -T "date=%y" -T "tracknumber=%n" -T "genre=%m" %s --sector-align
Use compression offset : 0
Other options :
Fill up missing offset samples with silence : Yes
Delete leading and trailing silent blocks : No
Native Win32 interface for Win NT & 2000
Track 1
Filename C:\Exact Audio Copy\+Ripped+\01-Paul_van_Dyk_-_White_Lies_(Berlin_Vocal_Mix).wav
Pre-gap length 0:00:02.00
Peak level 98.8 %
Track quality 100.0 %
Test CRC 24C23892
Copy CRC 24C23892
Copy OK
Track 2
Filename C:\Exact Audio Copy\+Ripped+\02-Paul_van_Dyk_-_Detournment.wav
Peak level 100.0 %
Track quality 100.0 %
Test CRC E1F95F6D
Copy CRC E1F95F6D
Copy OK
Track 3
Filename C:\Exact Audio Copy\+Ripped+\03-Paul_van_Dyk_-_Big_Bang.wav
Peak level 99.5 %
Track quality 100.0 %
Test CRC FFF04FDB
Copy CRC FFF04FDB
Copy OK
Track 4
Filename C:\Exact Audio Copy\+Ripped+\04-Paul_van_Dyk_-_Torn.wav
Peak level 98.8 %
Track quality 100.0 %
Test CRC 32D895BE
Copy CRC 32D895BE
Copy OK
Track 5
Filename C:\Exact Audio Copy\+Ripped+\05-Paul_van_Dyk_-_World_In_My_Eyes.wav
Peak level 98.8 %
Track quality 100.0 %
Test CRC 3ABF1009
Copy CRC 3ABF1009
Copy OK
Track 6
Filename C:\Exact Audio Copy\+Ripped+\06-Paul_van_Dyk_-_White_Lies_(Count_Mix).wav
Peak level 98.8 %
Track quality 100.0 %
Test CRC F7978734
Copy CRC F7978734
Copy OK
Track 7
Filename C:\Exact Audio Copy\+Ripped+\07-Paul_van_Dyk_-_Taking_The_Long_Way.wav
Peak level 98.8 %
Track quality 100.0 %
Test CRC CC681378
Copy CRC CC681378
Copy OK
Track 8
Filename C:\Exact Audio Copy\+Ripped+\08-Paul_van_Dyk_-_Hours.wav
Peak level 98.8 %
Track quality 100.0 %
Test CRC 70F4E5AD
Copy CRC 70F4E5AD
Copy OK
No errors occured
End of status report

-Доп. информация:
Stop complaining. I know what's best for you. © Steve Jobs


Last edited by Red_Bandit on 2010-05-07 05:05; edited 2 times in total
[Profile]  [PM] 
Display posts from previous:    

The time now is: Today 22:38

All times are GMT + 4 Hours



You cannot post new topics in this forum
You cannot reply to topics in this forum
You cannot edit your posts in this forum
You cannot delete your posts in this forum
You cannot vote in polls in this forum
You cannot attach files in this forum
You cannot download files in this forum