Самые скачиваемые

5 C

5

 

Red_Bandit ®

Longevity:
10 years
Posts:
169

Paul van Dyk - Out There And Back
Жанр: Trance
Издатель: Deviant Rec.
Официальный сайт: PaulVanDyk.com
Год выпуска: 2000
Источник: FLAC (tracks+.cue)
Продолжительность: 02:07:48
Тексты: в наличии
-Треклисты:

Out There And Back - CD1

01. Vega (6:05)
02. Pikes (6:59)
03. Another Way (5:24)
04. Travelling (7:10)
05. Avenue (7:29)
06. Tell Me Why (The Riddle) (7:53)
07. Together We Will Conquer (7:24)
08. Face To Face (5:43)
09. The Love From Above (5:48)
10. Columbia (5:04)
11. Out There And Back (6:56)
12. We Are Alive (6:31)

Out There And Back - CD2

01. Santos (7:54)
02. All I Need (4:53)
03. Namistai (8:22)
04. Another Way (Original) (5:27)
05. Tell Me Why (Vandit Mix Re-Edit) (7:21)
06. Tell Me Why (Club Mix) (5:55)
07. Face To Face (Piano Mix) (6:14)
08. Together We Will Conquer (Short Mix) (3:32)
Video1. Another Way (3:30)
Video2. Tell Me Why (The Riddle) (3:49)

Тех-данные:

CD1 - cонограмма на трек - Tell Me Why

CD2 - cонограмма на трек - Face To Face

CD1 - EAC logfile

Exact Audio Copy V0.99 prebeta 4 from 23. January 2008
EAC extraction logfile from 29. March 2009, 10:33
Paul van Dyk / Out There And Back (Disc 1)
Used drive : TSSTcorpCD/DVDW SN-S082D Adapter: 1 ID: 0
Read mode : Secure
Utilize accurate stream : Yes
Defeat audio cache : Yes
Make use of C2 pointers : No
Read offset correction : 6
Overread into Lead-In and Lead-Out : No
Fill up missing offset samples with silence : Yes
Delete leading and trailing silent blocks : No
Null samples used in CRC calculations : Yes
Used interface : Native Win32 interface for Win NT & 2000
Gap handling : Appended to previous track
Used output format : User Defined Encoder
Selected bitrate : 1024 kBit/s
Quality : High
Add ID3 tag : No
Command line compressor : C:\Program Files\FLAC\flac.exe
Additional command line options : -8 -V -T "ARTIST=%a" -T "TITLE=%t" -T "ALBUM=%g" -T "DATE=%y" -T "TRACKNUMBER=%n" -T "GENRE=%m" -T "COMMENT=EAC FLAC -8" %s
TOC of the extracted CD
Track | Start | Length | Start sector | End sector
---------------------------------------------------------
1 | 0:00.00 | 6:02.72 | 0 | 27221
2 | 6:02.72 | 6:59.35 | 27222 | 58681
3 | 13:02.32 | 5:24.23 | 58682 | 83004
4 | 18:26.55 | 7:10.22 | 83005 | 115276
5 | 25:37.02 | 7:29.35 | 115277 | 148986
6 | 33:06.37 | 7:53.10 | 148987 | 184471
7 | 40:59.47 | 7:23.63 | 184472 | 217759
8 | 48:23.35 | 5:43.30 | 217760 | 243514
9 | 54:06.65 | 5:47.65 | 243515 | 269604
10 | 59:54.55 | 5:03.52 | 269605 | 292381
11 | 64:58.32 | 6:55.40 | 292382 | 323546
12 | 71:53.72 | 6:28.58 | 323547 | 352704
Track 1
Filename C:\Documents and Settings\Андрей\Рабочий стол\Download\WAV\Out There And Back (Disc 1)\01. Paul van Dyk - Vega.wav
Pre-gap length 0:00:02.00
Peak level 97.5 %
Track quality 99.9 %
Test CRC DEDF6947
Copy CRC DEDF6947
Track not present in AccurateRip database
Copy OK
Track 2
Filename C:\Documents and Settings\Андрей\Рабочий стол\Download\WAV\Out There And Back (Disc 1)\02. Paul van Dyk - Pikes.wav
Peak level 97.6 %
Track quality 100.0 %
Test CRC 5D210253
Copy CRC 5D210253
Track not present in AccurateRip database
Copy OK
Track 3
Filename C:\Documents and Settings\Андрей\Рабочий стол\Download\WAV\Out There And Back (Disc 1)\03. Paul van Dyk - Another Way.wav
Peak level 97.6 %
Track quality 100.0 %
Test CRC F98B97A7
Copy CRC F98B97A7
Track not present in AccurateRip database
Copy OK
Track 4
Filename C:\Documents and Settings\Андрей\Рабочий стол\Download\WAV\Out There And Back (Disc 1)\04. Paul van Dyk - Travelling.wav
Peak level 97.3 %
Track quality 100.0 %
Test CRC 36733150
Copy CRC 36733150
Track not present in AccurateRip database
Copy OK
Track 5
Filename C:\Documents and Settings\Андрей\Рабочий стол\Download\WAV\Out There And Back (Disc 1)\05. Paul van Dyk - Avenue.wav
Peak level 97.6 %
Track quality 100.0 %
Test CRC 34DE4923
Copy CRC 34DE4923
Track not present in AccurateRip database
Copy OK
Track 6
Filename C:\Documents and Settings\Андрей\Рабочий стол\Download\WAV\Out There And Back (Disc 1)\06. Paul van Dyk - Tell Me Why (The Riddle).wav
Peak level 94.9 %
Track quality 100.0 %
Test CRC 6A08C6D3
Copy CRC 6A08C6D3
Track not present in AccurateRip database
Copy OK
Track 7
Filename C:\Documents and Settings\Андрей\Рабочий стол\Download\WAV\Out There And Back (Disc 1)\07. Paul van Dyk - Together We Will Conquer.wav
Peak level 97.6 %
Track quality 100.0 %
Test CRC F407758A
Copy CRC F407758A
Track not present in AccurateRip database
Copy OK
Track 8
Filename C:\Documents and Settings\Андрей\Рабочий стол\Download\WAV\Out There And Back (Disc 1)\08. Paul van Dyk - Face To Face.wav
Peak level 97.6 %
Track quality 100.0 %
Test CRC D326EA37
Copy CRC D326EA37
Track not present in AccurateRip database
Copy OK
Track 9
Filename C:\Documents and Settings\Андрей\Рабочий стол\Download\WAV\Out There And Back (Disc 1)\09. Paul van Dyk - The Love From Above.wav
Peak level 97.0 %
Track quality 100.0 %
Test CRC EFA8E105
Copy CRC EFA8E105
Track not present in AccurateRip database
Copy OK
Track 10
Filename C:\Documents and Settings\Андрей\Рабочий стол\Download\WAV\Out There And Back (Disc 1)\10. Paul van Dyk - Columbia.wav
Peak level 97.5 %
Track quality 100.0 %
Test CRC 55A37A21
Copy CRC 55A37A21
Track not present in AccurateRip database
Copy OK
Track 11
Filename C:\Documents and Settings\Андрей\Рабочий стол\Download\WAV\Out There And Back (Disc 1)\11. Paul van Dyk - Out There And Back.wav
Peak level 97.6 %
Track quality 100.0 %
Test CRC C8802A4B
Copy CRC C8802A4B
Track not present in AccurateRip database
Copy OK
Track 12
Filename C:\Documents and Settings\Андрей\Рабочий стол\Download\WAV\Out There And Back (Disc 1)\12. Paul van Dyk - We Are Alive.wav
Peak level 97.6 %
Track quality 100.0 %
Test CRC 09D1AC1C
Copy CRC 09D1AC1C
Track not present in AccurateRip database
Copy OK
None of the tracks are present in the AccurateRip database
No errors occurred
End of status report

CD2 - EAC Logfile

Exact Audio Copy V0.99 prebeta 4 from 23. January 2008
EAC extraction logfile from 29. March 2009, 11:07
Paul van Dyk / Out There And Back (Disc 2)
Used drive : TSSTcorpCD/DVDW SN-S082D Adapter: 1 ID: 0
Read mode : Secure
Utilize accurate stream : Yes
Defeat audio cache : Yes
Make use of C2 pointers : No
Read offset correction : 6
Overread into Lead-In and Lead-Out : No
Fill up missing offset samples with silence : Yes
Delete leading and trailing silent blocks : No
Null samples used in CRC calculations : Yes
Used interface : Native Win32 interface for Win NT & 2000
Gap handling : Appended to previous track
Used output format : User Defined Encoder
Selected bitrate : 1024 kBit/s
Quality : High
Add ID3 tag : No
Command line compressor : C:\Program Files\FLAC\flac.exe
Additional command line options : -8 -V -T "ARTIST=%a" -T "TITLE=%t" -T "ALBUM=%g" -T "DATE=%y" -T "TRACKNUMBER=%n" -T "GENRE=%m" -T "COMMENT=EAC FLAC -8" %s
TOC of the extracted CD
Track | Start | Length | Start sector | End sector
---------------------------------------------------------
1 | 0:00.00 | 7:53.44 | 0 | 35518
2 | 7:53.44 | 4:53.09 | 35519 | 57502
3 | 12:46.53 | 8:21.61 | 57503 | 95138
4 | 21:08.39 | 5:26.69 | 95139 | 119657
5 | 26:35.33 | 7:21.14 | 119658 | 152746
6 | 33:56.47 | 5:54.48 | 152747 | 179344
7 | 39:51.20 | 6:13.62 | 179345 | 207381
8 | 46:05.07 | 3:31.52 | 207382 | 223258
9 | 52:08.59 | 10:51.41 | 234659 | 283524
Track 1
Filename C:\Documents and Settings\Андрей\Рабочий стол\Download\WAV\Out There And Back (Disc 2)\2-01. Paul van Dyk - Santos.wav
Pre-gap length 0:00:02.00
Peak level 98.8 %
Track quality 100.0 %
Test CRC A50AF4BA
Copy CRC A50AF4BA
Accurately ripped (confidence 6) [381D5B94]
Copy OK
Track 2
Filename C:\Documents and Settings\Андрей\Рабочий стол\Download\WAV\Out There And Back (Disc 2)\2-02. Paul van Dyk - All I Need.wav
Peak level 98.8 %
Track quality 100.0 %
Test CRC C01010F9
Copy CRC C01010F9
Accurately ripped (confidence 6) [50B0A49B]
Copy OK
Track 3
Filename C:\Documents and Settings\Андрей\Рабочий стол\Download\WAV\Out There And Back (Disc 2)\2-03. Paul van Dyk - Namistai.wav
Peak level 98.8 %
Track quality 100.0 %
Test CRC F40339A6
Copy CRC F40339A6
Accurately ripped (confidence 6) [DA83E3BF]
Copy OK
Track 4
Filename C:\Documents and Settings\Андрей\Рабочий стол\Download\WAV\Out There And Back (Disc 2)\2-04. Paul van Dyk - Another Way (Original).wav
Pre-gap length 0:00:02.04
Peak level 98.8 %
Track quality 100.0 %
Test CRC 1E868B1E
Copy CRC 1E868B1E
Accurately ripped (confidence 6) [BA540961]
Copy OK
Track 5
Filename C:\Documents and Settings\Андрей\Рабочий стол\Download\WAV\Out There And Back (Disc 2)\2-05. Paul van Dyk - Tell Me Why (Vandit Mix).wav
Pre-gap length 0:00:01.02
Peak level 98.8 %
Track quality 100.0 %
Test CRC 6A69B4EF
Copy CRC 6A69B4EF
Accurately ripped (confidence 6) [EF8454BB]
Copy OK
Track 6
Filename C:\Documents and Settings\Андрей\Рабочий стол\Download\WAV\Out There And Back (Disc 2)\2-06. Paul van Dyk - Tell Me Why (Club Mix).wav
Pre-gap length 0:00:02.04
Peak level 98.8 %
Track quality 99.9 %
Test CRC 7FFE4DF7
Copy CRC 7FFE4DF7
Accurately ripped (confidence 6) [F11CFAEE]
Copy OK
Track 7
Filename C:\Documents and Settings\Андрей\Рабочий стол\Download\WAV\Out There And Back (Disc 2)\2-07. Paul van Dyk - Face To Face (Piano Mix).wav
Pre-gap length 0:00:02.04
Peak level 98.8 %
Track quality 100.0 %
Test CRC BC3884EE
Copy CRC BC3884EE
Accurately ripped (confidence 6) [E074B965]
Copy OK
Track 8
Filename C:\Documents and Settings\Андрей\Рабочий стол\Download\WAV\Out There And Back (Disc 2)\2-08. Paul van Dyk - Together We Will Conquer (Radio).wav
Pre-gap length 0:00:02.04
Peak level 98.8 %
Track quality 100.0 %
Test CRC C9AD2355
Copy CRC C9AD2355
Accurately ripped (confidence 6) [2E9A1B45]
Copy OK
All tracks accurately ripped
No errors occurred
End of status report

Video Info

Another Way - log

*** MediaInfo Mac // Plain text file report
2010-02-26 06:28:18 +0300
Information for File: 09. Paul van Dyk - Another Way (Video).MPG
General / Container Stream # 1
Total Video Streams for this File -> 1
Total Audio Streams for this File -> 1
Video Codecs Used -> MPEG-1 Video
Audio Codecs Used -> MPEG-1 Audio layer 2
File Format -> MPEG-PS
Play Time -> 3mn 30s
Total File Size -> 30.9 MiB
Total Stream BitRate -> 1 230 Kbps
Video Stream # 1
Codec (Human Name) -> MPEG Video
Frame Width -> 352 pixels
Frame Height -> 288 pixels
Frame Rate -> 25.000 fps
Total Frames -> 5266
Display Aspect Ratio -> 4/3
Scan Type -> Progressive
QF (like Gordian Knot) -> 0.422
Codec Settings (Matrix) -> Default
Video Stream Length -> 3mn 30s 640ms
Video Stream BitRate -> 1 069 Kbps
Video Stream BitRate (Nominal) -> 1 098 Kbps
Video Stream BitRate Mode -> CBR
Video Stream Size -> 26.8 MiB (87%)
Audio Stream # 1
Codec -> MPEG Audio
Codec Profile -> Joint stereo
Audio Stream Length -> 3mn 30s 599ms
Audio Stream BitRate -> 112 Kbps
Audio Stream BitRate Mode -> CBR
Number of Audio Channels -> 2
Sampling Rate -> 44.1 KHz
Bit Depth -> 16 bits
Audio Stream Delay -> 333ms
Audio Stream Size -> 2.81 MiB (9%)

Another Way - Раскадровка

Tell Me Why - log

*** MediaInfo Mac // Plain text file report
2010-02-26 06:28:42 +0300
Information for File: 10. Paul van Dyk - Tell Me Why (The Riddle) (Video).MPG
General / Container Stream # 1
Total Video Streams for this File -> 1
Total Audio Streams for this File -> 1
Video Codecs Used -> MPEG-1 Video
Audio Codecs Used -> MPEG-1 Audio layer 2
File Format -> MPEG-PS
Play Time -> 3mn 49s
Total File Size -> 39.5 MiB
Total Stream BitRate -> 1 441 Kbps
Video Stream # 1
Codec (Human Name) -> MPEG Video
Frame Width -> 352 pixels
Frame Height -> 288 pixels
Frame Rate -> 25.000 fps
Total Frames -> 5743
Display Aspect Ratio -> 4/3
Scan Type -> Progressive
QF (like Gordian Knot) -> 0.502
Codec Settings (Matrix) -> Default
Video Stream Length -> 3mn 49s 720ms
Video Stream BitRate -> 1 272 Kbps
Video Stream BitRate (Nominal) -> 1 308 Kbps
Video Stream BitRate Mode -> CBR
Video Stream Size -> 34.8 MiB (88%)
Audio Stream # 1
Codec -> MPEG Audio
Codec Profile -> Joint stereo
Audio Stream Length -> 3mn 49s 642ms
Audio Stream BitRate -> 112 Kbps
Audio Stream BitRate Mode -> CBR
Number of Audio Channels -> 2
Sampling Rate -> 44.1 KHz
Bit Depth -> 16 bits
Audio Stream Delay -> 290ms
Audio Stream Size -> 3.07 MiB (8%)

Tell Me Why - Раскадровка


-Доп. информация:
Discogs - DVNT37DCD

Stop complaining. I know what's best for you. © Steve Jobs
[Profile]  [PM] 

A.Wake

Longevity:
9 years
Posts:
8

Ну что ж, понеслась)))) Спасибо за раздел :)
[Profile]  [PM] 

iMACsimka

Longevity:
10 years
Posts:
9

Сутки торрент провисел на скачке ,видимо раздающих тут нет.... Будем искать...
[Profile]  [PM] 
Display posts from previous:    

The time now is: Today 22:15

All times are GMT + 4 Hours



You cannot post new topics in this forum
You cannot reply to topics in this forum
You cannot edit your posts in this forum
You cannot delete your posts in this forum
You cannot vote in polls in this forum
You cannot attach files in this forum
You cannot download files in this forum