Самые скачиваемые

5 C

5

 

bugagazavr ®

Longevity:
10 years
Posts:
96

Armin van Buuren - A State Of Trance 2010
Страна: Нидерланды
Жанр: Trance
Год выпуска: 2010
Сайт: arminvanbuuren.com
Источник: FLAC (image + .cue)
Издательство: Moon Records
Продолжительность: 02:33:20
Тексты: Нету
-Трэклисты:

CD1

01. - Susana feat. Omnia & The Blizzard - Closer
02. - Luigi Lusini - Who We Are
03. - M6 - Days Of Wonder
04. - Mat Zo - Near The End
05. - Monogato - Sincere
06. - Ron Hagen & Al Exander - Last Minute
07. - The Thrillseekers - Savanna
08. - Orjan Nilsen - Lovers Lane
09. - Beat Service feat. Emma Lock - Cut & Run
10. - Tenishia feat. Aneym - Stranger to Myself (Tenishia's Burnout Mix)
11. - Andy Moor feat. Carrie Skipper - She Moves
12. - DJ Governor - Shades Of Grey
13. - Myon & Shane 54 feat. Labworks - Ibiza Sunrise (Classic Dub)
14. - Andrew Bennett feat. Sir Adrian - Run Till U Shine (Cosmic Gate Remix)

CD2

01. - Velvetine - Safe [Wherever You Are] (Rank 1 Remix - AvB Intro Edit)
02. - Faithless - Not Going Home (Armin van Buuren Remix)
03. - Gaia - Aisha
04. - Arnej - The Strings That Bind Us
05. - Eco feat. Lira Yin - Love (Dub Mix)
06. - Roger Shah & Signum - Ancient World (Roger Shah Long Haul Flight)
07. - Jer Martin - Ten Minutes To Midnight (Original Club Mix)
08. - Dreastic - Spirit
09. - Ferry Tayle - Trapeze (Daniel Kandi's Emotional Remix)
10. - Max Graham - Sun In The Winter (Alex M.O.R.P.H. Remix)
11. - Sebastian Brandt - 450
12. - Thomas Bronzwaer - Collider (Jorn van Deynhoven Remix)
13. - Ehren Stowers - Ascent
14. - Robert Nickson - We Won't Forget
15. - Simon Patterson - Taxi

-Технические данные:

Сонограмма CD1

Сонограмма CD2

EAC log CD1

Exact Audio Copy V0.99 prebeta 4 from 23. January 2008
EAC extraction logfile from 6. April 2010, 19:53
Various / A State Of Trance 2010 (Mixed by Armin van Buuren) [CDI]
Used drive : Optiarc DVD RW AD-5240S Adapter: 2 ID: 0
Read mode : Secure
Utilize accurate stream : Yes
Defeat audio cache : Yes
Make use of C2 pointers : No
Read offset correction : 48
Overread into Lead-In and Lead-Out : No
Fill up missing offset samples with silence : Yes
Delete leading and trailing silent blocks : No
Null samples used in CRC calculations : Yes
Used interface : Native Win32 interface for Win NT & 2000
Used output format : Internal WAV Routines
Sample format : 44.100 Hz; 16 Bit; Stereo
TOC of the extracted CD
Track | Start | Length | Start sector | End sector
---------------------------------------------------------
1 | 0:00.00 | 5:54.59 | 0 | 26608
2 | 5:54.59 | 5:54.33 | 26609 | 53191
3 | 11:49.17 | 4:51.54 | 53192 | 75070
4 | 16:40.71 | 5:24.70 | 75071 | 99440
5 | 22:05.66 | 4:25.64 | 99441 | 119379
6 | 26:31.55 | 4:21.69 | 119380 | 139023
7 | 30:53.49 | 4:23.59 | 139024 | 158807
8 | 35:17.33 | 4:50.68 | 158808 | 180625
9 | 40:08.26 | 5:41.62 | 180626 | 206262
10 | 45:50.13 | 5:34.40 | 206263 | 231352
11 | 51:24.53 | 7:20.22 | 231353 | 264374
12 | 58:45.00 | 5:46.35 | 264375 | 290359
13 | 64:31.35 | 6:08.08 | 290360 | 317967
14 | 70:39.43 | 4:35.16 | 317968 | 338608
Range status and errors
Selected range
Filename F:\ARMA238\Various - A State Of Trance 2010 (Mixed by Armin van Buuren) [CDI].wav
Peak level 96.6 %
Range quality 100.0 %
Test CRC 86546A7D
Copy CRC 86546A7D
Copy OK
No errors occurred
End of status report

EAC log CD2

Exact Audio Copy V0.99 prebeta 4 from 23. January 2008
EAC extraction logfile from 6. April 2010, 20:42
Various / A State Of Trance 2010 (Mixed by Armin van Buuren) [CDII]
Used drive : Optiarc DVD RW AD-5240S Adapter: 2 ID: 0
Read mode : Secure
Utilize accurate stream : Yes
Defeat audio cache : Yes
Make use of C2 pointers : No
Read offset correction : 48
Overread into Lead-In and Lead-Out : No
Fill up missing offset samples with silence : Yes
Delete leading and trailing silent blocks : No
Null samples used in CRC calculations : Yes
Used interface : Native Win32 interface for Win NT & 2000
Used output format : Internal WAV Routines
Sample format : 44.100 Hz; 16 Bit; Stereo
TOC of the extracted CD
Track | Start | Length | Start sector | End sector
---------------------------------------------------------
1 | 0:00.00 | 6:44.33 | 0 | 30332
2 | 6:44.33 | 6:24.61 | 30333 | 59193
3 | 13:09.19 | 7:20.23 | 59194 | 92216
4 | 20:29.42 | 4:48.53 | 92217 | 113869
5 | 25:18.20 | 4:03.45 | 113870 | 132139
6 | 29:21.65 | 5:12.64 | 132140 | 155603
7 | 34:34.54 | 5:25.71 | 155604 | 180049
8 | 40:00.50 | 5:12.26 | 180050 | 203475
9 | 45:13.01 | 4:14.09 | 203476 | 222534
10 | 49:27.10 | 4:54.22 | 222535 | 244606
11 | 54:21.32 | 4:47.23 | 244607 | 266154
12 | 59:08.55 | 5:08.23 | 266155 | 289277
13 | 64:17.03 | 3:40.72 | 289278 | 305849
14 | 67:58.00 | 4:36.21 | 305850 | 326570
15 | 72:34.21 | 5:31.16 | 326571 | 351411
Range status and errors
Selected range
Filename F:\ARMA238\Various - A State Of Trance 2010 (Mixed by Armin van Buuren) [CDII].wav
Peak level 96.6 %
Range quality 100.0 %
Test CRC 5D9FFA0F
Copy CRC 5D9FFA0F
Copy OK
No errors occurred
End of status report

-Доп. Информация
Новая бомба электронной музыки от лучшего мирового ди-джея из Голландии Armin Van Buuren. Его шоу A State Of Trance на национальной голландской радиостанции стартовало в 2001 году, но очень скоро стало транслироваться по всему миру. Сегодня A State of Trance слушают около 25 миллионов людей. Одноименная ежегодная компиляция стала традиционной составляющей всемирного бренда «Армин ван Бюрен», приносит миллионы долларов и срывает не меньшие лавры.
Сборник этого года включает в себя исключительно треки, достойные ротаций и рассчитывающие на удачную судьбу, иначе говоря, потенциальные и реальные бомбы. Как обычно, он бьет все прежние рекорды по попсовости, и вместе с этим крайне разнообразен: тут и лирика, и физика, то есть бешеная энергия. Крепко сбитую основу в виде треков от мастеров дела Энди Мура, Орджена Нильсена, Эндрю Бенетта, Роджера Ша и Макса Грэхема венчает мощнейший ремикс монстров прошлого десятилетия Faithless от самого Армина.


Last edited by bugagazavr on 2010-05-20 13:15; edited 1 time in total
[Profile]  [PM] 

Red_Bandit

Longevity:
10 years
Posts:
169

Други,
Вы в праве:
Предоставлять любое количество дополнительных сведений о релизе. Эти сведения имеют статус второстепенных и не должны следовать до обязательных при оформлении.
Stop complaining. I know what's best for you. © Steve Jobs
[Profile]  [PM] 

марк155 марк ма

Longevity:
9 years
Posts:
2

good
[Profile]  [PM] 

Glistokrad

Longevity:
9 years 6 months
Posts:
2

Черт, где-то я уже качал подобный сборник. Трэки же разбиты а части, т.е. unmixed?
[Profile]  [PM] 
Display posts from previous:    

The time now is: Today 21:29

All times are GMT + 4 Hours



You cannot post new topics in this forum
You cannot reply to topics in this forum
You cannot edit your posts in this forum
You cannot delete your posts in this forum
You cannot vote in polls in this forum
You cannot attach files in this forum
You cannot download files in this forum