Самые скачиваемые

5 C

5

 

bugagazavr ®

Longevity:
10 years
Posts:
96

Armin van Buuren - Imagine
Страна: Великобритания
Жанр: Trance
Сайт: arminvanbuuren.com
Год выпуска: 2008
Источник: FLAC track
Издатель: Sony BMG Poland
Продолжительность: 01:18:47
Тексты: Нету
Трэклист:
01. - Imagine
02. - Going Wrong
03. - Unforgiveable
04. - Face To Face
05. - Hold On To Me
06. - In And Out Of Love
07. - Never Say Never
08. - Rain
09. - What If
10. - Fine Without You
11. - Intricacy
-Технические данные:

Сонограмма

EAC log

EAC extraction logfile from 18. April 2008, 14:49 for CD
Armin Van Buuren / Imagine
Used drive : MATSHITADVD-RAM UJ-850S Adapter: 1 ID: 0
Read mode : Secure with NO C2, accurate stream, disable cache
Read offset correction : 102
Overread into Lead-In and Lead-Out : No
Used output format : C:\Program Files\Exact Audio Copy\flac.exe (User Defined Encoder)
192 kBit/s
Additional command line options : -8 -A tukey(0.25) -A gauss(0.1875) -b 4096 -V -T "artist=%a" -T "title=%t" -T "album=%g" -T "date=%y" -T "tracknumber=%n" -T "genre=%m" %s --sector-align
Other options :
Fill up missing offset samples with silence : Yes
Delete leading and trailing silent blocks : No
Installed external ASPI interface
Track 1
Filename D:\Armin_Van_Buuren-Imagine-CD-2008-LOSSLESS-LAF\01-Armin_Van_Buuren-Imagine.wav
Pre-gap length 0:00:02.00
Peak level 96.6 %
Track quality 100.0 %
Test CRC 4CFB5474
Copy CRC 4CFB5474
Copy OK
Track 2
Filename D:\Armin_Van_Buuren-Imagine-CD-2008-LOSSLESS-LAF\02-Armin_Van_Buuren-Going_Wrong.wav
Peak level 96.6 %
Track quality 100.0 %
Test CRC EBBDF0C7
Copy CRC EBBDF0C7
Copy OK
Track 3
Filename D:\Armin_Van_Buuren-Imagine-CD-2008-LOSSLESS-LAF\03-Armin_Van_Buuren-Unforgivable.wav
Peak level 96.6 %
Track quality 100.0 %
Test CRC 71C67796
Copy CRC 71C67796
Copy OK
Track 4
Filename D:\Armin_Van_Buuren-Imagine-CD-2008-LOSSLESS-LAF\04-Armin_Van_Buuren-Face_To_Face.wav
Peak level 96.6 %
Track quality 100.0 %
Test CRC 663FB55F
Copy CRC 663FB55F
Copy OK
Track 5
Filename D:\Armin_Van_Buuren-Imagine-CD-2008-LOSSLESS-LAF\05-Armin_Van_Buuren-Hold_On_To_Me.wav
Peak level 96.6 %
Track quality 100.0 %
Test CRC 9B0FC3B0
Copy CRC 9B0FC3B0
Copy OK
Track 6
Filename D:\Armin_Van_Buuren-Imagine-CD-2008-LOSSLESS-LAF\06-Armin_Van_Buuren-In_And_Out_Of_Love.wav
Peak level 96.6 %
Track quality 100.0 %
Test CRC BEB07D28
Copy CRC BEB07D28
Copy OK
Track 7
Filename D:\Armin_Van_Buuren-Imagine-CD-2008-LOSSLESS-LAF\07-Armin_Van_Buuren-Never_Say_Never.wav
Peak level 96.6 %
Track quality 100.0 %
Test CRC FD5AC06A
Copy CRC FD5AC06A
Copy OK
Track 8
Filename D:\Armin_Van_Buuren-Imagine-CD-2008-LOSSLESS-LAF\08-Armin_Van_Buuren-Rain.wav
Peak level 96.6 %
Track quality 100.0 %
Test CRC 02E86BA1
Copy CRC 02E86BA1
Copy OK
Track 9
Filename D:\Armin_Van_Buuren-Imagine-CD-2008-LOSSLESS-LAF\09-Armin_Van_Buuren-What_If.wav
Peak level 96.6 %
Track quality 100.0 %
Test CRC 86F7102F
Copy CRC 86F7102F
Copy OK
Track 10
Filename D:\Armin_Van_Buuren-Imagine-CD-2008-LOSSLESS-LAF\10-Armin_Van_Buuren-Fine_Without_You.wav
Peak level 96.6 %
Track quality 100.0 %
Test CRC 76DCE963
Copy CRC 76DCE963
Copy OK
Track 11
Filename D:\Armin_Van_Buuren-Imagine-CD-2008-LOSSLESS-LAF\11-Armin_Van_Buuren-Intricacy.wav
Peak level 96.6 %
Track quality 99.9 %
Test CRC 9815030F
Copy CRC 9815030F
Copy OK
No errors occured
End of status report


Last edited by bugagazavr on 2010-04-18 16:37; edited 2 times in total
[Profile]  [PM] 

Red_Bandit

Longevity:
10 years
Posts:
169

Только источник согласно логу должен быть прописан: FLAC track
Stop complaining. I know what's best for you. © Steve Jobs
[Profile]  [PM] 
Display posts from previous:    

The time now is: Today 21:11

All times are GMT + 4 Hours



You cannot post new topics in this forum
You cannot reply to topics in this forum
You cannot edit your posts in this forum
You cannot delete your posts in this forum
You cannot vote in polls in this forum
You cannot attach files in this forum
You cannot download files in this forum