Самые скачиваемые

5 C

5

 

bugagazavr ®

Longevity:
10 years
Posts:
96

ATB - Future Memories
Страна: Германия
Жанр: Trance
Год выпуска: 2009
Сайт: atb-music.com
Издательство: Kontor Records
Источник: FLAC Track
Продолжительность: 02:12:51
Тексты: Нету
Андре Таннебергер (нем. Andr? Tanneberger; р. 26 февраля 1973) — немецкий музыкант и продюсер электронной музыки, диджей, автор песен, в первую очередь известный своей работой «9 PM (Till I Come)» (по версии журнала DJ Mag он занимает 11 место в рейтинге лучших диджеев). На счету Андре 8 студийных альбомов и пять компиляций из серии «The DJ In the mix».
-Трэклисты:

CD1

01. - L.A. Nights
02. - What About Us
03. - Swept Away
04. - A New Day
05. - My Everything
06. - Summervibes With 9 pm
07. - Gravity
08. - Luminescence
09. - Behind
10. - Future Memories
11. - Still Here
12. - My Saving Grace
13. - Terra260273
14. - Communicate

CD2

01. - Talismanic
02. - Missing
03. - Horizon
04. - Voices
05. - Behind
06. - Authentic Reaction
07. - Careless
08. - Twilight
09. - Listen To Me
10. - Living Life Over
11. - Silent Meaning
12. - Malibu Road

-Технические данные:

Сонограмма CD1

Сонограмма CD2

EAC log CD1

Exact Audio Copy V0.99 prebeta 4 from 23. January 2008
EAC extraction logfile from 2. May 2009, 13:05
ATB / Future Memories
Used drive : PLEXTOR DVDR PX-760A Adapter: 0 ID: 0
Read mode : Secure
Utilize accurate stream : Yes
Defeat audio cache : Yes
Make use of C2 pointers : No
Read offset correction : 30
Overread into Lead-In and Lead-Out : No
Fill up missing offset samples with silence : Yes
Delete leading and trailing silent blocks : No
Null samples used in CRC calculations : Yes
Used interface : Native Win32 interface for Win NT & 2000
Gap handling : Appended to previous track
Used output format : User Defined Encoder
Selected bitrate : 128 kBit/s
Quality : High
Add ID3 tag : No
Command line compressor : G:\Program Files\FLAC\flac.exe
Additional command line options : -8 -V -T "ARTIST=%a" -T "TITLE=%t" -T "ALBUM=%g" -T "DATE=%y" -T "TRACKNUMBER=%n" -T "GENRE=%m" -T "COMMENT=ripped by DrStandBy" %s
TOC of the extracted CD
Track | Start | Length | Start sector | End sector
---------------------------------------------------------
1 | 0:00.00 | 4:33.00 | 0 | 20474
2 | 4:33.00 | 5:36.51 | 20475 | 45725
3 | 10:09.51 | 6:42.54 | 45726 | 75929
4 | 16:52.30 | 5:01.30 | 75930 | 98534
5 | 21:53.60 | 5:06.42 | 98535 | 121526
6 | 27:00.27 | 5:31.22 | 121527 | 146373
7 | 32:31.49 | 5:58.43 | 146374 | 173266
8 | 38:30.17 | 4:31.74 | 173267 | 193665
9 | 43:02.16 | 4:01.41 | 193666 | 211781
10 | 47:03.57 | 5:58.52 | 211782 | 238683
11 | 53:02.34 | 5:36.29 | 238684 | 263912
12 | 58:38.63 | 4:09.73 | 263913 | 282660
13 | 62:48.61 | 5:49.52 | 282661 | 308887
14 | 68:38.38 | 4:05.57 | 308888 | 327319
Track 1
Filename C:\Lossless\ATB\Album\2009 - Future Memories\1-01. ATB - L.A. Nights.wav
Pre-gap length 0:00:02.00
Peak level 100.0 %
Track quality 100.0 %
Test CRC AD6A4478
Copy CRC AD6A4478
Track not present in AccurateRip database
Copy OK
Track 2
Filename C:\Lossless\ATB\Album\2009 - Future Memories\1-02. ATB - What About Us.wav
Peak level 100.0 %
Track quality 99.9 %
Test CRC 9D80CC86
Copy CRC 9D80CC86
Track not present in AccurateRip database
Copy OK
Track 3
Filename C:\Lossless\ATB\Album\2009 - Future Memories\1-03. ATB - Swept Away.wav
Pre-gap length 0:00:01.37
Peak level 100.0 %
Track quality 100.0 %
Test CRC FC1EB0E6
Copy CRC FC1EB0E6
Track not present in AccurateRip database
Copy OK
Track 4
Filename C:\Lossless\ATB\Album\2009 - Future Memories\1-04. ATB - A New Day.wav
Pre-gap length 0:00:02.13
Peak level 100.0 %
Track quality 100.0 %
Test CRC 0A402DF2
Copy CRC 0A402DF2
Track not present in AccurateRip database
Copy OK
Track 5
Filename C:\Lossless\ATB\Album\2009 - Future Memories\1-05. ATB - My Everything.wav
Pre-gap length 0:00:01.57
Peak level 100.0 %
Track quality 100.0 %
Test CRC A828233E
Copy CRC A828233E
Track not present in AccurateRip database
Copy OK
Track 6
Filename C:\Lossless\ATB\Album\2009 - Future Memories\1-06. ATB - Summervibes with 9PM.wav
Pre-gap length 0:00:01.97
Peak level 100.0 %
Track quality 100.0 %
Test CRC CECD03EC
Copy CRC CECD03EC
Track not present in AccurateRip database
Copy OK
Track 7
Filename C:\Lossless\ATB\Album\2009 - Future Memories\1-07. ATB - Gravity.wav
Pre-gap length 0:00:00.78
Peak level 100.0 %
Track quality 100.0 %
Test CRC B52C4DFF
Copy CRC B52C4DFF
Track not present in AccurateRip database
Copy OK
Track 8
Filename C:\Lossless\ATB\Album\2009 - Future Memories\1-08. ATB - Luminescence (feat. Josh Gallahan).wav
Pre-gap length 0:00:01.76
Peak level 100.0 %
Track quality 100.0 %
Test CRC 0A427ED2
Copy CRC 0A427ED2
Track not present in AccurateRip database
Copy OK
Track 9
Filename C:\Lossless\ATB\Album\2009 - Future Memories\1-09. ATB - Behind (feat. Flanders).wav
Pre-gap length 0:00:02.41
Peak level 100.0 %
Track quality 100.0 %
Test CRC FCA27187
Copy CRC FCA27187
Track not present in AccurateRip database
Copy OK
Track 10
Filename C:\Lossless\ATB\Album\2009 - Future Memories\1-10. ATB - Future Memories.wav
Pre-gap length 0:00:02.58
Peak level 100.0 %
Track quality 100.0 %
Test CRC FB8C2EFB
Copy CRC FB8C2EFB
Track not present in AccurateRip database
Copy OK
Track 11
Filename C:\Lossless\ATB\Album\2009 - Future Memories\1-11. ATB - Still Here.wav
Pre-gap length 0:00:00.81
Peak level 100.0 %
Track quality 99.9 %
Test CRC 3C137933
Copy CRC 3C137933
Track not present in AccurateRip database
Copy OK
Track 12
Filename C:\Lossless\ATB\Album\2009 - Future Memories\1-12. ATB - My Saving Grace.wav
Pre-gap length 0:00:00.13
Peak level 100.0 %
Track quality 100.0 %
Test CRC BB17C0BA
Copy CRC BB17C0BA
Track not present in AccurateRip database
Copy OK
Track 13
Filename C:\Lossless\ATB\Album\2009 - Future Memories\1-13. ATB - Terra 260273.wav
Pre-gap length 0:00:01.53
Peak level 100.0 %
Track quality 100.0 %
Test CRC DF1B0C71
Copy CRC DF1B0C71
Track not present in AccurateRip database
Copy OK
Track 14
Filename C:\Lossless\ATB\Album\2009 - Future Memories\1-14. ATB - Communicate (feat. Jades).wav
Pre-gap length 0:00:01.82
Peak level 100.0 %
Track quality 100.0 %
Test CRC 95299AE4
Copy CRC 95299AE4
Track not present in AccurateRip database
Copy OK
None of the tracks are present in the AccurateRip database
No errors occurred
End of status report

EAC log CD2

Exact Audio Copy V0.99 prebeta 4 from 23. January 2008
EAC extraction logfile from 2. May 2009, 12:21
ATB / Future Memories
Used drive : PLEXTOR DVDR PX-760A Adapter: 0 ID: 0
Read mode : Secure
Utilize accurate stream : Yes
Defeat audio cache : Yes
Make use of C2 pointers : No
Read offset correction : 30
Overread into Lead-In and Lead-Out : No
Fill up missing offset samples with silence : Yes
Delete leading and trailing silent blocks : No
Null samples used in CRC calculations : Yes
Used interface : Native Win32 interface for Win NT & 2000
Gap handling : Appended to previous track
Used output format : User Defined Encoder
Selected bitrate : 128 kBit/s
Quality : High
Add ID3 tag : No
Command line compressor : G:\Program Files\FLAC\flac.exe
Additional command line options : -8 -V -T "ARTIST=%a" -T "TITLE=%t" -T "ALBUM=%g" -T "DATE=%y" -T "TRACKNUMBER=%n" -T "GENRE=%m" -T "COMMENT=ripped by DrStandBy" %s
TOC of the extracted CD
Track | Start | Length | Start sector | End sector
---------------------------------------------------------
1 | 0:00.00 | 5:39.56 | 0 | 25480
2 | 5:39.56 | 4:15.39 | 25481 | 44644
3 | 9:55.20 | 6:15.62 | 44645 | 72831
4 | 16:11.07 | 4:35.52 | 72832 | 93508
5 | 20:46.59 | 3:02.22 | 93509 | 107180
6 | 23:49.06 | 3:52.37 | 107181 | 124617
7 | 27:41.43 | 6:56.60 | 124618 | 155877
8 | 34:38.28 | 5:48.72 | 155878 | 182049
9 | 40:27.25 | 4:06.30 | 182050 | 200529
10 | 44:33.55 | 5:33.23 | 200530 | 225527
11 | 50:07.03 | 5:35.46 | 225528 | 250698
12 | 55:42.49 | 4:24.44 | 250699 | 270542
Track 1
Filename C:\Lossless\ATB\Album\2009 - Future Memories\2-01. ATB - Talismanic.wav
Pre-gap length 0:00:02.00
Peak level 100.0 %
Track quality 100.0 %
Test CRC D08A72DC
Copy CRC D08A72DC
Track not present in AccurateRip database
Copy OK
Track 2
Filename C:\Lossless\ATB\Album\2009 - Future Memories\2-02. ATB - Missing.wav
Peak level 100.0 %
Track quality 100.0 %
Test CRC 7CB9D7A4
Copy CRC 7CB9D7A4
Track not present in AccurateRip database
Copy OK
Track 3
Filename C:\Lossless\ATB\Album\2009 - Future Memories\2-03. ATB - Horizon.wav
Peak level 100.0 %
Track quality 100.0 %
Test CRC 088EFBB5
Copy CRC 088EFBB5
Track not present in AccurateRip database
Copy OK
Track 4
Filename C:\Lossless\ATB\Album\2009 - Future Memories\2-04. ATB - Voices.wav
Peak level 100.0 %
Track quality 100.0 %
Test CRC 820EEFE0
Copy CRC 820EEFE0
Track not present in AccurateRip database
Copy OK
Track 5
Filename C:\Lossless\ATB\Album\2009 - Future Memories\2-05. ATB - Behind (ATB's Ambient Version).wav
Pre-gap length 0:00:00.14
Peak level 100.0 %
Track quality 99.9 %
Test CRC 52585B95
Copy CRC 52585B95
Track not present in AccurateRip database
Copy OK
Track 6
Filename C:\Lossless\ATB\Album\2009 - Future Memories\2-06. ATB - Authentic Reaction (feat. Apple & Stone).wav
Pre-gap length 0:00:00.14
Peak level 100.0 %
Track quality 100.0 %
Test CRC 6719E0E1
Copy CRC 6719E0E1
Track not present in AccurateRip database
Copy OK
Track 7
Filename C:\Lossless\ATB\Album\2009 - Future Memories\2-07. ATB - Careless.wav
Peak level 97.7 %
Track quality 100.0 %
Test CRC 728602E9
Copy CRC 728602E9
Track not present in AccurateRip database
Copy OK
Track 8
Filename C:\Lossless\ATB\Album\2009 - Future Memories\2-08. ATB - Twilight.wav
Pre-gap length 0:00:00.14
Peak level 100.0 %
Track quality 100.0 %
Test CRC B3F2A7EC
Copy CRC B3F2A7EC
Track not present in AccurateRip database
Copy OK
Track 9
Filename C:\Lossless\ATB\Album\2009 - Future Memories\2-09. ATB - Listen To Me.wav
Peak level 100.0 %
Track quality 99.9 %
Test CRC 84A46476
Copy CRC 84A46476
Track not present in AccurateRip database
Copy OK
Track 10
Filename C:\Lossless\ATB\Album\2009 - Future Memories\2-10. ATB - Living Life Over.wav
Peak level 98.9 %
Track quality 100.0 %
Test CRC B849DB6E
Copy CRC B849DB6E
Track not present in AccurateRip database
Copy OK
Track 11
Filename C:\Lossless\ATB\Album\2009 - Future Memories\2-11. ATB - Silent Meaning.wav
Peak level 100.0 %
Track quality 100.0 %
Test CRC 7243A1DF
Copy CRC 7243A1DF
Track not present in AccurateRip database
Copy OK
Track 12
Filename C:\Lossless\ATB\Album\2009 - Future Memories\2-12. ATB - Malibu Road.wav
Peak level 100.0 %
Track quality 100.0 %
Test CRC 9944CD8D
Copy CRC 9944CD8D
Track not present in AccurateRip database
Copy OK
None of the tracks are present in the AccurateRip database
No errors occurred
End of status report
[Profile]  [PM] 
Display posts from previous:    

The time now is: Today 22:49

All times are GMT + 4 Hours



You cannot post new topics in this forum
You cannot reply to topics in this forum
You cannot edit your posts in this forum
You cannot delete your posts in this forum
You cannot vote in polls in this forum
You cannot attach files in this forum
You cannot download files in this forum